#TITLE:retard x-mas song;
#SUBTITLE:retarded steps too;
#ARTIST:one and only adam sandler;
#TITLETRANSLIT:;
#SUBTITLETRANSLIT:;
#ARTISTTRANSLIT:;
#CREDIT:;
#BANNER:Adam_Sandler_i_Littl_15538f.jpg;
#BACKGROUND:FF7Open-bg.jpg;
#LYRICSPATH:;
#CDTITLE:;
#MUSIC:jerkey boys - retarted x-mas song.mp3;
#OFFSET:-1.145;
#SAMPLESTART:74.935;
#SAMPLELENGTH:12.000;
#SELECTABLE:YES;
#BPMS:0.000=81.500;
#STOPS:;
#BGCHANGES:;
// cache tags:
#FIRSTBEAT:0.000;
#LASTBEAT:228.000;
#SONGFILENAME:Songs/Music V.I.P ^_^/retarded christmas song/retarded.sm;
#HASMUSIC:1;
#HASBANNER:1;
#MUSICLENGTH:133.181;
// end cache tags

//---------------dance-single - BASIC----------------
#NOTES:
     dance-single:
     BASIC:
     Easy:
     3:
     0.334,0.407,0.278,0.008,0.000,273.000,37.000,1.000,0.000,0.000:

1000
0100
0001
0010
,
1000
0100
0001
0010
,
0010
0001
0100
1000
,
0010
0001
0100
1000
,
1000
0100
0001
0010
,
1000
0100
0001
0010
,
0010
0001
0100
1000
,
0010
0001
0100
1000
,
1000
0001
1000
0001
,
1000
0001
1000
0001
,
0010
0100
0010
0100
,
0010
0100
0010
0100
,
1000
0001
1000
0001
,
1000
0001
1000
0001
,
0010
0100
0010
0100
,
0010
0100
0010
0100
,
1010
0101
1010
0101
,
1100
0011
1100
0011
,
0110
0110
1001
1001
,
0110
0110
1001
1001
,
1010
1010
0101
0101
,
0011
0011
1100
1100
,
1000
0001
1000
0001
,
0010
0100
0010
0100
,
1000
0000
0001
0000
,
0010
0000
0100
0000
,
0110
0000
1001
0000
,
0110
0000
1001
0000
,
1000
0001
1000
0001
,
0010
0100
0010
0100
,
1000
0100
1000
0000
0001
0100
0001
0000
,
1000
0010
1000
0000
0001
0010
0001
0000
,
1000
0100
0001
0010
,
1000
0001
1100
0000
,
1100
0010
0001
0100
,
0010
1100
1000
0010
,
0000
0100
0100
0010
,
0001
0010
0100
0100
,
0010
0001
0100
0100
,
1000
1000
0010
0010
,
0010
0100
0100
0010
,
0001
0001
0100
0100
,
0100
1000
0000
0000
,
1000
0001
1000
0001
1000
0001
1000
0001
,
1000
0001
1000
0001
1000
0001
1000
0001
,
0100
0010
0100
0010
0100
0010
0100
0010
,
0100
0010
0100
0010
0100
0010
0100
0010
,
1000
0100
1000
0100
1000
0100
1000
0100
,
1000
0010
1000
0010
1000
0010
1000
0010
,
0001
0100
0001
0100
0001
0100
0001
0100
,
0001
0010
0001
0010
0001
0010
0001
0010
,
1001
0100
0010
0001
1100
1000
1000
0100
,
0010
0001
0110
0100
0100
0000
0100
0000
,
0010
0100
1000
0010
0001
0100
0100
0010
,
0001
0000
1000
0100
0010
0010
0010
1100
,
0200
0300
0100
1000
0110
0011
0100
0010
,
0100
1000
1000
1000
1000
0001
0001
0001
,
0001
0000
0000
0000;

//---------------dance-single - ANOTHER----------------
#NOTES:
     dance-single:
     ANOTHER:
     Medium:
     5:
     0.515,0.693,0.090,0.173,0.390,445.000,12.000,23.000,0.000,1.000:

1000
0100
0010
0001
1000
0100
0020
0000
,
0031
0100
0010
1000
0001
0100
0020
0000
,
1030
1000
0100
0010
0001
1000
0002
0000
,
1003
1000
0100
0010
0001
1000
0002
0000
,
1003
0100
0010
0001
1000
0100
0020
0000
,
0031
0100
0010
1000
0001
0100
0020
0000
,
1030
1000
0100
0010
0001
1000
0002
0000
,
1003
1000
0100
0010
0001
1000
0002
0000
,
1003
1000
1000
1000
1000
1000
1000
1000
,
0001
0001
0001
0001
0001
0001
0001
0001
,
0010
0010
0010
0010
0010
0010
0010
0010
,
0100
0100
0100
0100
0100
0100
0100
0100
,
1000
0100
1000
0000
0001
0100
0001
0000
,
0100
0010
0100
0000
0010
0100
0010
0000
,
1000
0100
0001
0000
0001
0100
1000
0000
,
1000
0010
0001
0000
0001
0010
1000
0000
,
2000
0000
0000
0000
,
3002
0000
0000
0003
2000
0000
0000
3000
,
0220
0000
0000
0000
,
0000
0000
0000
0000
0000
0000
0000
0330
,
2000
0010
0010
0010
0001
0001
0001
3001
,
0002
0100
0100
0103
0200
0000
0000
0300
,
2000
3002
2003
0000
0000
0000
0000
0000
,
0000
0000
0000
0000
,
3001
0100
1000
0010
0100
0001
1000
0010
,
0100
0001
1000
0100
0010
1000
0010
1000
,
0100
0001
0100
0010
1000
0001
0100
0010
,
0010
1000
0100
0010
1000
0001
0100
0010
,
1001
0100
0010
1000
0100
0010
0001
0100
,
0010
1000
0100
0010
0001
0010
0100
0010
,
0010
0010
1000
0100
0010
0001
0100
1000
,
1100
0010
0001
1000
1000
1000
1000
1000
,
1000
0100
1000
0100
1000
0100
1000
0010
1000
0010
1000
0010
,
1000
0001
0010
0001
0010
0001
0010
0001
0010
0001
1000
0100
,
1000
1000
1000
0001
0001
0001
0100
0100
0100
0010
0010
0010
,
1000
0100
0100
1000
0010
0010
1000
0010
0010
0100
0010
0010
,
1000
0100
1000
0001
0100
0001
1000
0010
1000
0001
0010
0001
,
1000
0100
1000
0001
0100
0001
1000
0010
1000
0001
0010
0001
,
2000
0000
0010
0000
0010
0000
0001
0000
0001
0000
0001
0000
0002
0000
0010
3000
0010
0000
1000
0000
1000
0000
1000
0000
,
1000
0003
1000
0000
1000
0000
1000
0000
,
1000
0100
0001
0100
1000
0010
0001
0100
,
1000
0010
0001
0010
1000
0100
0001
0100
,
0010
0100
0010
0001
1000
0001
1000
0100
,
0010
0100
0001
1000
0100
0010
0001
0100
,
0010
0001
1000
0100
0010
0100
0010
0001
,
1000
0100
0010
0001
1000
0100
0010
0100
,
1000
0100
0001
0010
1000
0010
0100
0001
,
1100
1100
1100
1100
0101
0101
0101
1001
,
2002
0000
0000
0000
,
0000
0000
0000
0000
0000
0000
0000
3003
,
1000
0100
0010
0001
1000
0100
0010
0001
1000
0100
0010
0001
1000
0100
0010
0001
,
0001
0010
0100
1000
0001
0010
0100
1000
0001
0010
0100
1000
0001
0010
0100
1000
,
1000
0100
0010
0100
0001
0010
0100
0010
1000
0100
0001
0010
1000
0100
0010
0001
,
0100
0010
1000
0100
0010
0001
0010
1000
0100
0100
0100
0100
0010
0010
0010
0010
,
1000
1000
0010
0100
1000
0001
0001
0010
0100
0001
1000
0010
0100
0001
1000
0001
,
1000
0001
1000
0001
1000
0001
1000
0001
1000
0001
1000
0001
1000
0001
1000
0001;

//---------------dance-single - MANIAC----------------
#NOTES:
     dance-single:
     MANIAC:
     Hard:
     9:
     0.957,0.882,0.120,0.788,1.000,771.000,16.000,105.000,0.000,0.000:

1000
0100
0010
0001
1000
0100
0010
0001
1000
0100
0010
0001
1000
0100
0010
0001
,
1000
0010
0100
0001
1000
0010
0100
0001
1000
0010
0100
0001
1000
0010
0100
0001
,
1000
0100
0010
0001
1000
0100
0010
0001
1000
0100
0010
0001
1000
0100
0010
0001
,
1000
0010
0100
0001
1000
0010
0100
0001
1000
0010
0100
0001
1000
0010
0100
0001
,
1000
0001
0100
0010
1000
0001
0100
0010
1000
0001
0100
0010
1000
0001
0100
0010
,
1000
0001
0010
0100
1000
0001
0010
0100
1000
0001
0010
0100
1000
0001
0010
0100
,
1000
0010
0100
0001
1000
0010
0100
0001
1000
0010
0100
0001
1000
0010
0100
0001
,
1000
0100
0010
0001
1000
0100
0010
0001
1000
0100
0010
0001
1000
0100
0010
0001
,
1000
0001
1000
0001
1000
0001
1000
0001
1000
0001
1000
0001
1000
0001
1000
0001
,
0010
0100
0010
0100
0010
0100
0010
0100
0010
0100
0010
0100
0010
0100
0010
0100
,
0010
0001
0010
0001
0010
0001
0010
0001
0010
0001
0010
0001
0010
0001
0010
0001
,
1000
0100
1000
0100
1000
0100
1000
0100
1000
0100
1000
0100
1000
0100
1000
0100
,
1000
0100
0010
0001
1000
0100
0010
0001
1000
0100
0010
0001
1000
0100
0010
0001
,
1000
0010
0100
0001
1000
0010
0100
0001
1000
0010
0100
0001
1000
0010
0100
0001
,
1000
0100
0010
0001
1000
0100
0010
0001
1000
0100
0010
0001
1000
0100
0010
0001
,
1000
0010
0100
0001
1000
0010
0100
0001
1000
0000
0001
0000
0110
0000
1001
0000
,
2000
0001
0001
3001
0020
0100
0100
0130
2000
0001
0001
3001
0020
0100
0100
0130
,
2000
0001
0001
3001
0020
0100
0100
0130
2000
0001
0001
3001
0020
0100
0100
0130
,
2000
0010
0010
3010
0020
0100
0100
0130
0200
0001
0001
0301
0002
0010
0010
0013
,
2000
0010
0010
3010
0020
0100
0100
0130
0200
0001
0001
0301
0002
0010
0010
0013
,
2000
0001
0001
3001
0020
0100
0100
0130
2000
0001
0001
3001
0020
0100
0100
0130
,
2000
0001
0001
3001
0020
0100
0100
0130
2000
0001
0001
3001
0020
0100
0100
0130
,
2000
0010
0010
3010
0020
0100
0100
0130
0200
0001
0001
0301
0002
0010
0010
0013
,
2000
0010
0010
3010
0020
0100
0100
0130
0200
0001
0001
0301
0002
0010
0010
0013
,
2000
3002
2003
3002
2003
3002
2003
3002
2003
3002
2003
3002
2003
3002
2003
3002
,
1003
1000
0001
1000
0001
1000
0001
1000
,
0020
0230
0320
0230
0320
0230
0320
0230
0320
0230
0320
0230
0320
0230
0320
0130
,
0100
0010
0100
0010
0100
0010
0100
0010
,
2000
3200
2300
3020
2030
3200
2300
3020
2030
3200
2300
3020
2030
3200
2300
3020
,
2030
3000
0100
0000
1000
0000
0010
0000
1000
0000
0100
0000
1000
0000
0010
0000
,
0002
0203
0302
0023
0032
0203
0302
0023
0032
0203
0302
0023
0032
0203
0302
0023
,
0032
0003
0001
0000
0010
0000
0000
0000
1000
0000
0000
0000
0100
0000
0000
0000
,
0010
1000
0100
0010
0001
0100
0010
1000
0100
0010
0001
0100
0010
1000
0100
0010
,
0001
0100
0010
1000
0100
0010
0001
0100
0010
1000
0100
0010
0001
0100
0010
1000
,
0010
0100
0001
0010
0100
1000
0010
0100
0001
0010
0100
1000
0010
0100
0001
0010
,
0100
1000
0010
0100
0001
0010
0100
1000
0010
0100
0001
0010
0100
1000
0010
0100
,
0010
1000
0100
0010
0001
0100
0010
1000
0100
0010
0001
0100
0010
1000
0100
0010
,
0001
0100
0010
1000
0100
0010
0001
0100
0010
1000
0100
0010
0001
0100
0010
1000
,
0010
0100
0001
0010
0100
1000
0010
0100
0001
0010
0100
1000
0010
0100
0001
0010
,
0100
1000
0010
0100
0001
0010
0100
0000
1000
0000
0000
0000
0001
0000
0000
0000
,
1000
0100
0001
0100
1000
0100
0001
0100
1000
0100
0001
0100
1000
0100
0001
0100
,
1000
0010
0001
0010
1000
0010
0001
0010
1000
0010
0001
0010
1000
0010
0001
0010
,
1000
0100
1000
0010
1000
0100
1000
0010
1000
0100
1000
0010
1000
0100
1000
0010
,
0100
0001
0010
0001
0100
0001
0010
0001
0100
0001
0010
0001
0100
0001
0010
0001
,
1000
0010
0100
0001
1000
0100
0010
0001
1000
0010
0100
0001
1000
0100
0010
0001
,
1000
0010
0100
0001
1000
0100
0010
0001
1000
0010
0100
0001
1000
0100
0010
0001
,
1000
0001
1000
0001
1001
0000
1001
0000
0010
0100
0010
0100
0110
0000
0110
0000
,
1000
0010
1000
0010
1010
0000
1010
0000
0100
0001
0100
0001
0101
0000
0101
0000
,
1000
0100
0000
0100
1000
0000
1000
0001
0000
0001
1000
0000
1000
0010
0000
0010
,
0100
0000
0100
0001
0000
0001
1000
0000
1000
0001
0000
0001
0010
0000
0010
0000
,
1000
0100
1000
0100
1000
0001
1000
0001
1000
0010
1000
0010
1000
0001
1000
1001
,
0001
0100
0001
0100
0001
1000
0001
1000
0001
0010
0001
0010
0001
1000
0001
1001
,
2002
0000
0000
0000
0000
0000
0000
0000
0000
0000
0000
0000
0000
0000
0000
3003
,
0220
0000
0000
0000
0000
0000
0000
0330
2020
0000
0000
0000
0000
0000
0000
3030
,
0022
0000
0000
0000
,
0000
0000
0000
0000
0000
0000
0000
0000
0000
0000
0000
0000
0000
0000
0000
0033;

//---------------dance-single - ----------------
#NOTES:
     dance-single:
     :
     Edit:
     1:
     0.251,0.213,0.113,0.015,0.698,217.000,15.000,2.000,0.000,0.000:
0000
1000
0000
0000
0000
0000
0000
0000
0000
0001
0000
0000
0010
0000
0000
0000
0100
0000
0000
0000
0000
0000
0000
0000
1000
0000
0000
0000
0000
0000
0000
0000
0001
0000
0010
0000
0000
0000
0100
0000
0000
0000
0000
0000
0000
0000
0010
0000
0000
0000
0000
0000
0000
0000
0100
0000
0000
0000
0001
0000
0000
1000
0000
0000
,
0000
0000
0000
0000
0000
0100
0000
0000
0000
0000
0000
0000
0000
0010
0000
0000
0001
0000
0000
0000
0100
0000
0000
0000
0000
0000
0000
0000
1000
0000
0000
0000
0000
0000
0000
0100
0000
0000
0000
1000
0000
0000
0000
0010
0000
0000
0000
0000
0000
0000
0000
0100
0000
0000
0000
0000
0000
0000
0001
0000
0000
0000
0000
1000
,
0000
0000
0010
0000
0000
0000
0000
0000
0000
0100
0000
0000
0000
0000
0000
0000
0001
0000
0000
0010
0000
0000
0100
0000
0000
0000
0000
0000
0000
0000
0000
0000
0001
0000
0000
0000
0000
0000
0000
0000
1000
0000
0000
0010
0000
0000
0000
0100
0000
0000
0001
0000
0000
0000
0010
0000
0000
0000
0000
0000
0000
0001
0000
0000
,
0000
0100
0000
0000
1000
0000
0000
0000
0010
0000
0000
0100
0000
0000
0000
0000
0000
0000
0000
0000
0001
0000
0000
0000
0000
0000
0000
0000
0001
0000
0000
0000
0010
0000
0000
0001
0000
0000
0000
0000
0000
0000
0000
0100
0000
0000
0000
0000
0000
0000
0000
0001
0000
0000
0000
0000
0000
0000
1000
0000
0000
0000
0100
0000
,
0000
0000
0010
0000
0000
0000
0001
0000
0000
1000
0000
0000
0000
0010
0000
0000
0000
1000
0000
0000
0000
0100
0000
0000
0000
0000
0001
0000
0000
0000
0000
0000
0000
0000
1000
0000
0000
0000
0000
0000
0000
0010
0000
0000
0000
0100
0000
0000
0000
0001
0000
0000
0000
1000
0000
0000
0010
0000
0000
0000
0100
0000
0000
0000
,
0001
0000
0000
1000
0000
0000
0010
0000
0000
0000
0000
0000
0000
0000
1000
0000
0000
0000
0000
0000
0000
0000
0001
0000
0000
0000
0000
0000
0000
0100
0000
0000
0000
0010
0000
0000
0000
1000
0000
0000
0000
0000
0000
0000
1001
0000
0000
0000
0000
0000
0000
0000
0100
0000
0000
0000
0010
0000
0000
0000
0100
0000
0000
0000
,
0000
0000
0000
1001
0000
0000
0000
0000
0000
0000
0000
0000
0100
0000
0000
0010
0000
0000
0000
0100
0000
0000
0000
0000
0000
0000
0000
1010
0000
0000
0000
0000
0000
0000
0001
0000
0000
0100
0000
0000
0001
0000
0000
0000
0000
0000
0000
0000
0011
0000
0000
0000
0000
0000
0000
0000
0001
0000
0100
0000
0000
0000
0010
0000
,
0000
0000
0000
0000
0000
0000
0000
1000
0010
0000
0000
0000
0000
0000
0000
0100
0000
0000
0000
0001
0000
0000
0010
0000
0000
0000
0000
0000
0000
0000
0101
0000
0000
0000
0000
0000
0000
0010
0000
0000
0100
0000
0000
0000
0010
0000
0000
0000
0000
0000
0000
0000
1010
0000
0000
0000
0000
0000
0000
0000
0100
0000
0000
0001
,
0000
0000
0000
0000
0000
0000
0000
0000
0000
0001
0000
0000
0000
0000
0000
0000
0000
1000
0000
0000
0010
0000
0000
0000
0100
0000
0000
0001
0000
0000
0000
0000
0010
0000
0000
0000
0000
0000
0000
0100
0000
0000
0000
1000
0000
0000
0000
0010
0000
0000
0000
1000
0000
0000
0100
0000
0000
0000
0000
0000
0000
0000
0001
0000
,
0000
0000
0000
0000
0000
0100
0000
0000
0000
0010
0000
0000
0000
1000
0000
0000
0000
0000
0000
0000
0000
0100
0000
0000
0000
0000
0000
0000
0000
0000
0000
0000
0000
0000
0000
0000
0000
0000
0000
0001
0000
0000
0000
0010
0000
0000
0000
0100
0000
0000
1000
0000
0000
0010
0000
0000
0000
0100
0000
0000
0001
0000
0000
0100
,
0000
0000
0000
0010
0000
0000
0000
0000
0000
0100
0000
0000
0000
0000
0000
0000
0000
0000
0001
0000
0000
1000
0000
0000
0000
0100
0000
0000
1000
0000
0000
0000
0010
0000
0000
1000
0000
0000
0000
0100
0000
0000
0000
0000
0001
0000
0000
0000
0100
0000
0000
0000
0000
0000
0000
0000
0000
0010
0000
0000
0000
0000
0000
0000
,
0000
1100
0000
0000
0000
0000
0000
0000
0000
0000
0001
0000
0000
0010
0000
0000
0000
0001
0000
0000
0000
0000
0000
0000
0000
0101
0000
0000
0000
0000
0000
0000
0000
0010
0000
0000
0000
1000
0000
0000
0100
0000
0000
0000
0000
0000
0000
0000
0010
0100
0000
0000
0000
0000
0000
0000
0000
0001
0000
0000
0010
0000
0000
0000
,
0001
0000
0000
0000
0000
0000
0000
1001
0000
0000
0000
0000
0000
0000
0000
0010
0000
0000
0000
0100
0000
0000
0000
0010
0000
0000
0000
0000
0000
0000
0000
1010
0000
0000
0000
0000
0000
0000
0000
0000
0001
0000
0000
0000
0100
0000
0000
0000
0001
0000
0000
0000
0000
0000
0011
0000
0000
0000
0000
0000
0000
0001
0000
0000
,
0000
0100
0000
0000
0000
0010
0000
0000
0000
0000
0000
0000
0000
1010
0000
0000
0000
0000
0000
0000
0100
0000
0000
0000
0010
0000
0000
0000
0001
0000
0000
0000
0000
0000
0000
0101
0000
0000
0000
0000
0000
0000
0010
0000
0000
0000
1000
0000
0000
0000
0100
0000
0000
0000
0000
0000
0000
0000
0000
0001
0000
0000
0000
0000
,
0000
0000
0000
0010
0000
0000
0000
0100
0000
0000
1000
0000
0000
0000
0010
0000
0000
0000
0000
1000
0000
0000
0100
0000
0000
0000
0000
0010
0000
0000
0000
0001
0000
0000
0000
0100
0000
0000
0010
0000
0000
0000
1000
0000
0000
0000
0000
0000
0000
0000
0100
0000
0000
0000
0000
0000
0000
0000
0000
0010
0000
0000
0000
0001
,
0000
0000
0000
0100
0000
0000
0000
0000
0000
0000
0000
0010
0000
0000
0000
0000
0000
0000
1000
0000
0000
0000
0000
0000
0000
0000
0000
0001
0000
0000
0010
0000
0000
0000
0100
0000
0000
0000
0010
0000
0000
0001
0000
0000
0100
0000
0000
0000
0010
0000
0000
0000
0100
0000
0000
0001
0000
0000
0000
0000
0000
0000
0000
0010
,
0000
0000
0000
0000
0000
0000
0100
0000
0000
1000
0000
0000
0000
0010
0000
0000
0000
1000
0000
0000
0100
0000
0000
0000
1000
0000
0010
0000
0000
0000
1000
0000
0000
0000
0000
0100
0000
0000
0000
0000
0000
0000
0000
0010
0000
0000
0000
0000
0000
0000
0000
0000
1000
0000
0000
0000
0000
0000
0000
0000
0000
0001
0000
0000
,
0100
0000
0000
0000
0001
0000
0000
0000
0000
0000
0000
0000
0000
1001
0000
0000
0000
0000
0000
0000
0010
0000
0000
0100
0000
0000
0000
0000
0001
0000
0000
0000
0000
0000
0000
0000
0000
0000
0110
0000
0000
0000
0000
0000
0000
0000
0001
0000
0000
0000
0000
0000
0000
0000
0000
0000
0000
0000
0000
0000
0000
0000
0000
0000
,
0000
0000
0000
0000
0000
0001
0000
0000
0000
0000
0000
0000
0000
0000
0000
0000
0000
0000
0000
0000
0000
0000
0000
0000
0000
0000
0000
0000
0000
0000
0000
0000
0000
0000
0000
0000
0000
0000
0000
0000
0000
0000
0000
0000
0200
0000
0000
0000
0000
0000
0000
0000
0000
0000
0000
0000
0000
0000
0000
0000
0000
0000
0000
0000
,
0020
0000
0000
0300
0000
0000
0000
0000
0000
0000
0000
0000
0000
0000
0000
0000
0000
0000
0000
0000
0000
0000
0000
0000
0000
0000
0000
0000
0000
0000
0000
0000
0000
0000
0000
0000
0000
0030
0000
0000
0000
0000
0000
0000
0000
0000
0000
0000
0000
0000
0000
0000
0000
0000
0000
0000
0000
0000
0000
0000
0000
0000
0000
0000
;
